Results 1 to 3 of 3

Thread: Relics 2018 vinyl

  1. #1
    Join Date
    Jul 2006
    Posts
    455
    Thanks
    1,793
    Thanked 235 Times in 8 Posts

    Default Relics 2018 vinyl

    Upon first play I think this LP is a home run. It has exceeded my expectations. There stereo tunes demonstrate a great depth of sound field listening to a 2.1 setup. The bass is definitely there and not distorted. My copy of the vinyl is dead quiet. Silent passages are silent. Can't wait to get a DR value. Do we know where these were pressed?

    I went with Relics first. Now on to PULSE.

  2. #2
    Join Date
    Jul 2006
    Posts
    2,638
    Thanks
    2,138
    Thanked 2,852 Times in 127 Posts

    Default

    I just received mine yedterday - will get back to this after a listen (or two.....or five.....)

    Thanks for starting this thread, I'm frankly surprised a critical review has not had more postings by now.

  3. #3
    Join Date
    Jul 2006
    Posts
    455
    Thanks
    1,793
    Thanked 235 Times in 8 Posts

    Default

    I haven't ripped my vinyl yet, but did score a copy of this. Not too shabby.

    foobar2000 1.3.17 / Dynamic Range Meter 1.1.1
    log date: 2018-05-19 0153

    --------------------------------------------------------------------------------
    Analyzed: Pink Floyd / Relics
    --------------------------------------------------------------------------------

    DR Peak RMS Duration Track
    --------------------------------------------------------------------------------
    DR10 -3.41 dB -14.99 dB 2:55 01-Arnold Layne
    DR11 -3.20 dB -17.25 dB 9:41 02-Interstellar Overdrive
    DR10 -3.51 dB -15.27 dB 2:53 03-See Emily Play
    DR12 -1.70 dB -16.68 dB 4:27 04-Remember A Day
    DR12 -1.85 dB -17.98 dB 3:33 05-Paintbox
    DR10 -3.98 dB -17.71 dB 2:36 06-Julia Dream
    DR11 -2.65 dB -17.78 dB 5:45 07-Careful With That Axe, Eugene
    DR11 -4.98 dB -22.01 dB 5:13 08-Cirrus Minor
    DR11 -0.48 dB -14.65 dB 3:24 09-The Nile Song
    DR13 -1.24 dB -17.10 dB 5:17 10-Biding My Time
    DR11 -4.09 dB -18.89 dB 3:22 11-Bike
    --------------------------------------------------------------------------------

    Number of tracks: 11
    Official DR value: DR11

    Samplerate: 192000 Hz
    Channels: 2
    Bits per sample: 24
    Bitrate: 5358 kbps
    Codec: FLAC
    ================================================== ==============================

Posting Permissions

  • You may not post new threads
  • You may not post replies
  • You may not post attachments
  • You may not edit your posts
  •